Last change 2020.03.01 14:20:52 / Time 2021.12.01 15:55:17

Music Database

My complete CD collection digitalized using differnent Linux tools in connection with remote CDDB databases.
These web pages give overview of content according to CDDB info.

cddb/94095e0a.txt

# xmcd CD database file generated by Grip 3.0.4
# 
# Track frame offsets:
#       150
#       24720
#       43987
#       56457
#       72397
#       88900
#       113830
#       129197
#       147327
#       172145
# 
# Disc length: 2400 seconds
# 
# Revision: 9
# Submitted via: Grip 3.0.4
# 
DISCID=94095e0a
DTITLE=Bryan Ferry / Taxi
DYEAR=1991
DGENRE=rock
DID3=13
TTITLE0=I Put A Spell On You
TTITLE1=Will You Love Me Tomorrow
TTITLE2=Answer Me
TTITLE3=Just One Look
TTITLE4=Rescue Me
TTITLE5=All Tomorrow's Parties
TTITLE6=Girl Of My Best Friend
TTITLE7=Amazing Grace
TTITLE8=Taxi
TTITLE9=Because You're Mine
EXTD=YEAR: 1991
EXTT0=
EXTT1=
EXTT2=
EXTT3=
EXTT4=
EXTT5=
EXTT6=
EXTT7=
EXTT8=
EXTT9=
PLAYORDER=