Last change 2020.03.01 14:20:52 / Time 2020.09.19 15:15:15

Music Database

My complete CD collection digitalized using differnent Linux tools in connection with remote CDDB databases.
These web pages give overview of content according to CDDB info.

cddb/9309dc0c.txt

# xmcd CD database file generated by Grip 3.3.1
# 
# Track frame offsets:
#       150
#       19155
#       30057
#       47800
#       60300
#       69095
#       89460
#       110307
#       124952
#       138612
#       154235
#       163515
# 
# Disc length: 2526 seconds
# 
# Revision: 3
# Submitted via: Grip 3.3.1
# 
DISCID=9309dc0c
DTITLE=Kitaro / Silk Road Vol1
DYEAR=1981
DGENRE=misc
DID3=10
TTITLE0=Silk Road
TTITLE1=Bell Tower
TTITLE2=Heavenly Father
TTITLE3=The Great River
TTITLE4=The Great Wall Of China
TTITLE5=Flying Celestial Nymphs
TTITLE6=Silk Road Fantasy
TTITLE7=Shimmering Light
TTITLE8=Westbound
TTITLE9=Time
TTITLE10=Boddhisattva
TTITLE11=Everlasting Road
EXTD=YEAR: 1981
EXTT0=
EXTT1=
EXTT2=
EXTT3=
EXTT4=
EXTT5=
EXTT6=
EXTT7=
EXTT8=
EXTT9=
EXTT10=
EXTT11=
PLAYORDER=