Last change 2020.03.01 14:20:52 / Time 2021.10.18 10:09:32

Music Database

My complete CD collection digitalized using differnent Linux tools in connection with remote CDDB databases.
These web pages give overview of content according to CDDB info.

cddb/920e450b.txt

# xmcd CD database file
# Generated: Wed Nov 18 22:28:45 2009 by WSPse's MP3c
#
# Track frame offsets:
#       150
#       22671
#       52322
#       77155
#       99763
#       129649
#       156241
#       176621
#       193376
#       220866
#       242004
#
# Disc length: 3655 seconds
#
# Revision: 0
# Submitted via: MP3c 0.29
#   WSPse mp3c-0.29 (NLS) - ENGLISH (Sep 14 2004) Default:OGG
#
DISCID=920e450b
DTITLE=StormAndTheHurricanes / Center Of The Universe
TTITLE0=South of September
TTITLE1=Solitude
TTITLE2=Middle of the City
TTITLE3=Water from the Well
TTITLE4=Center of the Universe
TTITLE5=House of Spirite
TTITLE6=Fredericia
TTITLE7=Westcoast
TTITLE8=No Money Blues
TTITLE9=Fortini of Nea Cora
TTITLE10=Drivin' my Mind
EXTD=
EXTT0=unknown
EXTT1=unknown
EXTT2=unknown
EXTT3=unknown
EXTT4=unknown
EXTT5=unknown
EXTT6=unknown
EXTT7=unknown
EXTT8=unknown
EXTT9=unknown
EXTT10=unknown
PLAYORDER=