Last change 2020.03.01 14:20:52 / Time 2021.10.22 08:55:14

Music Database

My complete CD collection digitalized using differnent Linux tools in connection with remote CDDB databases.
These web pages give overview of content according to CDDB info.

cddb/920ac20d.txt

# xmcd CD database file generated by Grip 3.3.1
# 
# Track frame offsets:
#       150
#       2347
#       17497
#       20565
#       34795
#       53560
#       70505
#       72972
#       102122
#       121550
#       124177
#       131382
#       204092
# 
# Disc length: 2756 seconds
# 
# Revision: 3
# Submitted via: Grip 3.3.1
# 
DISCID=920ac20d
DTITLE=Monrad & Rislund / Den Store Julebasar
DYEAR=1997
DGENRE=misc
DID3=12
TTITLE0=Stations Id
TTITLE1=Frokost på  kontoret
TTITLE2=Mega jul 1
TTITLE3=Jul det halve  år
TTITLE4=Hansemann's julestue
TTITLE5=Lad engle bare dale
TTITLE6=Mega jul 2
TTITLE7=Julens lyde
TTITLE8=Barselsfeberen i Betlehem
TTITLE9=Et juletræ  fra Kolahalvøen
TTITLE10=Julevejret
TTITLE11=Den Store Julebasar
TTITLE12=Mega jul 3
EXTD=
EXTT0=
EXTT1=
EXTT2=
EXTT3=
EXTT4=
EXTT5=
EXTT6=
EXTT7=
EXTT8=
EXTT9=
EXTT10=
EXTT11=
EXTT12=
PLAYORDER=