Last change 2020.03.01 14:20:52 / Time 2021.12.01 15:31:29

Music Database

My complete CD collection digitalized using differnent Linux tools in connection with remote CDDB databases.
These web pages give overview of content according to CDDB info.

cddb/92080a0a.txt

# xmcd CD database file generated by Grip 3.2.0
# 
# Track frame offsets:
#       150
#       13930
#       28312
#       43495
#       56200
#       71292
#       92137
#       109235
#       121050
#       138340
# 
# Disc length: 2060 seconds
# 
# Revision: 12
# Submitted via: Grip 3.2.0
# 
DISCID=92080a0a
DTITLE=Jennings, Nelson, Cash, Kristofferson / Highwayman
DYEAR=1985
DGENRE=country
DID3=2
TTITLE0=Highwayman
TTITLE1=The Last Cowboy Song
TTITLE2=Jim, I Wore A Tie Today
TTITLE3=Big River
TTITLE4=Committed To Parkview
TTITLE5=Desperados Waiting For A Train
TTITLE6=Deportee (Plane Wreck at Los Gatos)
TTITLE7=Welfare Line
TTITLE8=Against The Wind
TTITLE9=The Twentieth Century Is Almost Over
EXTD=YEAR: 1985\nWaylon Jennings, Willie Nelson, Johnny Cash, Kris Kristoff
EXTD=erson\nCBS  463159 2
EXTT0=
EXTT1=
EXTT2=
EXTT3=
EXTT4=
EXTT5=
EXTT6=
EXTT7=
EXTT8=
EXTT9=
PLAYORDER=