Last change 2020.03.01 14:20:52 / Time 2021.10.22 09:42:23

Music Database

My complete CD collection digitalized using differnent Linux tools in connection with remote CDDB databases.
These web pages give overview of content according to CDDB info.

cddb/910b380b.txt

# xmcd CD database file generated by Grip 3.0.7
# 
# Track frame offsets:
#       150
#       21675
#       41557
#       63547
#       82227
#       101392
#       112140
#       127627
#       150512
#       169852
#       190852
# 
# Disc length: 2874 seconds
# 
# Revision: 1
# Submitted via: Grip 3.0.7
# 
DISCID=910b380b
DTITLE=Sophie B. Hawkins / Whaler
DYEAR=1994
DGENRE=misc
DID3=13
TTITLE0=Right Beside You
TTITLE1=Did We Not Choose Each Other
TTITLE2=Don't Don't Tell Me No
TTITLE3=As I Lay Me Down
TTITLE4=Swing From Limb To Limb (My Home Is In Your Jungle)
TTITLE5=True Romance
TTITLE6=Let Me Love You Up
TTITLE7=The Ballad Of Sleeping Beauty
TTITLE8=I Need Nothing Else
TTITLE9=Sometimes I See
TTITLE10=Mr. Tugboat Hello
EXTD=YEAR: 1994 ID3G: 13
EXTT0=
EXTT1=
EXTT2=
EXTT3=
EXTT4=
EXTT5=
EXTT6=
EXTT7=
EXTT8=
EXTT9=
EXTT10=
PLAYORDER=