Last change 2020.03.01 14:20:52 / Time 2020.09.25 04:28:40

Music Database

My complete CD collection digitalized using differnent Linux tools in connection with remote CDDB databases.
These web pages give overview of content according to CDDB info.

cddb/90107f1e.txt

# xmcd
#
# Track frame offsets:
#	150
#	9200
#	11837
#	24667
#	37685
#	48755
#	61387
#	61712
#	74495
#	86140
#	98597
#	111350
#	118912
#	121215
#	135212
#	139987
#	153002
#	166640
#	180265
#	187322
#	204572
#	218565
#	235112
#	248202
#	248537
#	256167
#	269640
#	282750
#	305117
#	310555
#
# Disc length: 4225 seconds
#
# Revision: 2
# Processed by: cddbd v1.5.2PL0 Copyright (c) Steve Scherf et al.
# Submitted via: EZCDDA 4.3.2
#
DISCID=90107f1e
DTITLE=Various / Gotha - Kult, Kitsch og B-sider
DYEAR=
DGENRE=
TTITLE0=Gotha Theme (The D.A.'s man)
TTITLE1=Godaften og velkommen
TTITLE2=Snapshot - Gi'r du et knus
TTITLE3=Lonnie Devantier - Hallo hallo
TTITLE4=Gry - Kloden drejer
TTITLE5=Trax - Du er fuld af løgn
TTITLE6=Orale perler I
TTITLE7=Kirsten og Søren - Sku' du spørg' fra no'en
TTITLE8=Brixx - Video video
TTITLE9=Trine Dyrholm - Danse i måneskin
TTITLE10=Tommy Seebach - Disco Tango
TTITLE11=Fredes snag
TTITLE12=Et par ord
TTITLE13=Tommy P - Syng en sang om evig fred
TTITLE14=En by i provinsen
TTITLE15=X-Tracy - Sommer rendez-vous
TTITLE16=Carsten Lehn - Lady fantasy
TTITLE17=Snapshot - A la carte
TTITLE18=Grand prix lyrik
TTITLE19=Brd. Olsen - San Francisco
TTITLE20=Carsten Elmer og Jørgen Klubien - Marie
TTITLE21=Regnar Egekvist - Holder af de ting
TTITLE22=Dansuenza
TTITLE23=Orale Perler II
TTITLE24=The hand on the death
TTITLE25=Allan Mortensen - Møllesangen
TTITLE26=Lecia Jønsson - Det' en hemmelighed
TTITLE27=Flid, fedt og snyd Classic
TTITLE28=Bamses Godnatsang
TTITLE29=Farvel farvel
EXTD=
EXTT0=
EXTT1=Palle snakker
EXTT2=nr. 2 i DK 1983
EXTT3=nr. 1 i DK i 1990
EXTT4=nr. 1 i DK (int. 17) i 1983
EXTT5=nr. 1 i DK (int. 6) i 1986
EXTT6="Men i aften skal det være anderledes" - Jens Winther
EXTT7=nr. 1 i DK (int. 11) i 1985
EXTT8=nr. 1 i DK (int. 17) i 1982
EXTT9=nr. 3 i DK i 1987
EXTT10=nr. 1 i DK (int. 6) i 1979
EXTT11=fra "Sørøver Sally"
EXTT12=Palle snakker (igen!?)
EXTT13=
EXTT14=Musik: Fuzzy\nFra: "En by i provinsen"
EXTT15=nr. 4 i DK i 1985
EXTT16=nr. 7 i DK i 1985
EXTT17=nr. 3 i DK i 1984
EXTT18="Kloden drejder" læst med følelse af Nis Bank-Mikkelsen
EXTT19=nr. 2 i DK i 1978
EXTT20=nr. 2 i DK i 1982
EXTT21=nr. 9 i DK i 1984
EXTT22=Da Poul fik Dansuenza - Bobo Step
EXTT23="Tak til familien Andersen og tak til Bo" - Sten Bramsen
EXTT24=
EXTT25=nr. 10 i DK i 1979
EXTT26=nr. 5 i DK i 1984
EXTT27=
EXTT28=Fra "Helmer Har et Hus" - jesper Klein
EXTT29=Tekst: Thomas Winding, Musik: Aske Bentzon
PLAYORDER=
.