Last change 2020.03.01 14:20:52 / Time 2021.10.18 10:22:58

Music Database

My complete CD collection digitalized using differnent Linux tools in connection with remote CDDB databases.
These web pages give overview of content according to CDDB info.

cddb/8f0a040c.txt

# xmcd CD database file generated by Grip 3.3.1
# 
# Track frame offsets:
#       150
#       15119
#       30838
#       44280
#       61623
#       76965
#       92685
#       108937
#       123675
#       148264
#       163978
#       176654
# 
# Disc length: 2566 seconds
# 
# Revision: 2
# Submitted via: Grip 3.3.1
# 
DISCID=8f0a040c
DTITLE=Traveling Wilburys / The Traveling Wilburys Collection 1
DYEAR=2007
DGENRE=jazz
DID3=12
TTITLE0=Handle With Care
TTITLE1=Dirty World
TTITLE2=Rattled
TTITLE3=Last Night
TTITLE4=Not Alone Any More
TTITLE5=Congratulations
TTITLE6=Heading for the Light
TTITLE7=Margarita
TTITLE8=Tweeter and the Monkey Man
TTITLE9=End of the Line
TTITLE10=Maxine
TTITLE11=Like a Ship
EXTD=
EXTT0=
EXTT1=
EXTT2=
EXTT3=
EXTT4=
EXTT5=
EXTT6=
EXTT7=
EXTT8=
EXTT9=
EXTT10=
EXTT11=
PLAYORDER=