Last change 2020.03.01 14:20:52 / Time 2021.10.22 09:21:36

Music Database

My complete CD collection digitalized using differnent Linux tools in connection with remote CDDB databases.
These web pages give overview of content according to CDDB info.

cddb/8e11120b.txt

# xmcd CD database file generated by Grip 3.0.7
# 
# Track frame offsets:
#       150
#       24257
#       40475
#       75227
#       101692
#       125840
#       149655
#       178835
#       211507
#       227480
#       253540
# 
# Disc length: 4372 seconds
# 
# Revision: 1
# Submitted via: Grip 3.0.7
# 
DISCID=8e11120b
DTITLE=Bob Dylan / Time Out Of Mind
DYEAR=1997
DGENRE=data
DID3=80
TTITLE0=Love Sick
TTITLE1=Dirt Road Blues
TTITLE2=Standing In The Doorway
TTITLE3=Million Miles
TTITLE4=Tryin' To Get To Heaven
TTITLE5=Till I Fell In Love With You
TTITLE6=Not Dark Yet
TTITLE7=Cold Irons Bound
TTITLE8=Make You Feel My Love
TTITLE9=Can't Wait
TTITLE10=Highlands
EXTD=
EXTT0=
EXTT1=
EXTT2=
EXTT3=
EXTT4=
EXTT5=
EXTT6=
EXTT7=
EXTT8=
EXTT9=
EXTT10=
PLAYORDER=