Last change 2020.03.01 14:20:52 / Time 2021.10.18 10:40:23

Music Database

My complete CD collection digitalized using differnent Linux tools in connection with remote CDDB databases.
These web pages give overview of content according to CDDB info.

cddb/8e0fc40b.txt

# xmcd CD database file generated by Grip 3.3.1
# 
# Track frame offsets:
#       150
#       30432
#       51475
#       77262
#       100890
#       129742
#       152915
#       180295
#       214320
#       245300
#       276882
# 
# Disc length: 4038 seconds
# 
# Revision: 27
# Submitted via: Grip 3.3.1
# 
DISCID=8e0fc40b
DTITLE=Phil Collins / Both Sides
DYEAR=1993
DGENRE=rock
DID3=13
TTITLE0=Both Sides Of The Story
TTITLE1=Can't Turn Back The Years
TTITLE2=Everyday
TTITLE3=I've Forgotten Everything
TTITLE4=We're Sons Of Our Fathers
TTITLE5=Can't Find My Way
TTITLE6=Survivors
TTITLE7=We Fly So Close
TTITLE8=There's A Place For Us
TTITLE9=We Wait And We Wonder
TTITLE10=Please Come Out Tonight
EXTD=CD US 1993 (Atlantic 82550-2) BMG D103096
EXTT0=
EXTT1=
EXTT2=
EXTT3=
EXTT4=
EXTT5=
EXTT6=
EXTT7=
EXTT8=
EXTT9=
EXTT10=
PLAYORDER=