Last change 2020.03.01 14:20:52 / Time 2020.09.19 14:32:22

Music Database

My complete CD collection digitalized using differnent Linux tools in connection with remote CDDB databases.
These web pages give overview of content according to CDDB info.

cddb/8e099e0c.txt

# xmcd CD database file generated by Grip 3.3.1
# 
# Track frame offsets:
#       150
#       9418
#       31098
#       49388
#       68655
#       84105
#       99155
#       111390
#       125800
#       148020
#       165438
#       174775
# 
# Disc length: 2464 seconds
# 
# Revision: 1
# Submitted via: Grip 3.3.1
# 
DISCID=8e099e0c
DTITLE=Ali Campbell / Big Love
DYEAR=
DGENRE=rock
DID3=-1
TTITLE0=Big Love (Intro)
TTITLE1=Happiness
TTITLE2=That Look In Your Eye
TTITLE3=Let Your Yeah Be Yeah
TTITLE4=You Can Cry On My Shoulder
TTITLE5=Somethin' Stupid
TTITLE6= Big Love
TTITLE7=You Could Meet Somebody
TTITLE8=Talking Blackbird
TTITLE9=Pay The Rent
TTITLE10=Drive It Home
TTITLE11=Stop The Guns
EXTD=
EXTT0=
EXTT1=
EXTT2=
EXTT3=
EXTT4=
EXTT5=
EXTT6=
EXTT7=
EXTT8=
EXTT9=
EXTT10=
EXTT11=
PLAYORDER=