Last change 2020.03.01 14:20:52 / Time 2021.10.22 10:00:41

Music Database

My complete CD collection digitalized using differnent Linux tools in connection with remote CDDB databases.
These web pages give overview of content according to CDDB info.

cddb/8e093c0b.txt

# xmcd CD database file generated by Grip 3.2.0
# 
# Track frame offsets:
#       150
#       15742
#       30474
#       44497
#       60243
#       86019
#       102624
#       115282
#       130042
#       145633
#       164555
# 
# Disc length: 2366 seconds
# 
# Revision: 4
# Submitted via: Grip 3.2.0
# 
DISCID=8e093c0b
DTITLE=Gasolin / Black Box - Gasolin 4 - Stakkels Jim
DYEAR=1974
DGENRE=rock
DID3=17
TTITLE0=Alla-Tin -Gala
TTITLE1=Daddy Ding-Dong
TTITLE2=Bingo
TTITLE3=Onkel 'How Do You Do'
TTITLE4=Legenden om Josha og Ming
TTITLE5=Kap Farvel til  Ümanarssuaq
TTITLE6=Perron 'Gare du Nord'
TTITLE7=Damernes nar
TTITLE8=Johnny Lee
TTITLE9=Stakkels Jim
TTITLE10=The Last Jim
EXTD=
EXTT0=
EXTT1=
EXTT2=
EXTT3=
EXTT4=
EXTT5=
EXTT6=
EXTT7=
EXTT8=
EXTT9=
EXTT10=
PLAYORDER=