Last change 2020.03.01 14:20:52 / Time 2021.12.07 02:17:38

Music Database

My complete CD collection digitalized using differnent Linux tools in connection with remote CDDB databases.
These web pages give overview of content according to CDDB info.

cddb/8d0cf309.txt

# xmcd CD database file generated by Grip 3.0.7
# 
# Track frame offsets:
#       182
#       23580
#       61560
#       80497
#       110040
#       148387
#       179747
#       200757
#       217317
# 
# Disc length: 3317 seconds
# 
# Revision: 2
# Submitted via: Grip 3.0.7
# 
DISCID=8d0cf309
DTITLE=Dire Straits / Brothers In Arms
DYEAR=1996
DGENRE=misc
DID3=12
TTITLE0=So far away
TTITLE1=Money for nothing
TTITLE2=Walk of life
TTITLE3=Your latest trick
TTITLE4=Why worry
TTITLE5=Ride across the river
TTITLE6=The man's too strong
TTITLE7=One world
TTITLE8=Brothers in arms
EXTD=Vertigo 824499-2
EXTT0=
EXTT1=
EXTT2=
EXTT3=
EXTT4=
EXTT5=
EXTT6=
EXTT7=
EXTT8=
PLAYORDER=