Last change 2020.03.01 14:20:52 / Time 2021.10.22 10:19:34

Music Database

My complete CD collection digitalized using differnent Linux tools in connection with remote CDDB databases.
These web pages give overview of content according to CDDB info.

cddb/8d097b0b.txt

# xmcd CD database file generated by Grip 3.0.4
# 
# Track frame offsets:
#       150
#       20595
#       38602
#       55382
#       70925
#       91150
#       106155
#       122480
#       138747
#       154222
#       167655
# 
# Disc length: 2429 seconds
# 
# Revision: 5
# Submitted via: Grip 3.0.4
# 
DISCID=8d097b0b
DTITLE=Yazoo / You And Me Both
DYEAR=1983
DGENRE=misc
DID3=13
TTITLE0=Nobody's Diary
TTITLE1=Softly Over
TTITLE2=Sweet Thing
TTITLE3=Mr Blue
TTITLE4=Good Times
TTITLE5=Walk Away From Love
TTITLE6=Ode To Boy
TTITLE7=Unmarked
TTITLE8=Anyone
TTITLE9=Happy People
TTITLE10=And On
EXTD=
EXTT0=
EXTT1=
EXTT2=
EXTT3=
EXTT4=
EXTT5=
EXTT6=
EXTT7=
EXTT8=
EXTT9=
EXTT10=
PLAYORDER=