Last change 2020.03.01 14:20:52 / Time 2021.10.18 10:07:21

Music Database

My complete CD collection digitalized using differnent Linux tools in connection with remote CDDB databases.
These web pages give overview of content according to CDDB info.

cddb/8c0bbe0c.txt

# xmcd
#
# Track frame offsets: 
#        150
#        15275
#        33262
#        52675
#        74262
#        99880
#        103225
#        127865
#        149740
#        166242
#        189042
#        192030
#
# Disc length: 3008 seconds
#
# Revision: 84
# Processed by: cddbd v1.5.2PL0 Copyright (c) Steve Scherf et al.
# Submitted via: ExactAudioCopy v0.99pb4
#
DISCID=8c0bbe0c
DTITLE=Oasis / (What's The Story) Morning Glory?
TTITLE0=Hello
TTITLE1=Roll With It
TTITLE2=Wonderwall
TTITLE3=Don't Look Back In Anger
TTITLE4=Hey Now!
TTITLE5=The Swamp Song (Version 1)
TTITLE6=Some Might Say
TTITLE7=Cast No Shadow
TTITLE8=She's Electric
TTITLE9=Morning Glory
TTITLE10=The Swamp Song (Version 2)
TTITLE11=Champagne Supernova
EXTD= YEAR: 1995
EXTT0=
EXTT1=
EXTT2=
EXTT3=
EXTT4=
EXTT5=
EXTT6=
EXTT7=
EXTT8=
EXTT9=
EXTT10=
EXTT11=
PLAYORDER=