Last change 2020.03.01 14:20:52 / Time 2021.10.22 08:48:26

Music Database

My complete CD collection digitalized using differnent Linux tools in connection with remote CDDB databases.
These web pages give overview of content according to CDDB info.

cddb/8a0c770b.txt

# xmcd CD database file generated by Grip 3.0.7
# 
# Track frame offsets:
#       183
#       21648
#       43840
#       65693
#       89185
#       115315
#       135010
#       152258
#       172808
#       195873
#       219023
# 
# Disc length: 3193 seconds
# 
# Revision: 24
# Submitted via: Grip 3.0.7
# 
DISCID=8a0c770b
DTITLE=Scorpions / Crazy World
DYEAR=1990
DGENRE=jazz
DID3=9
TTITLE0=Tease Me Please Me
TTITLE1=Don't Believe Her
TTITLE2=To Be With You In Heaven
TTITLE3=Wind Of Change
TTITLE4=Restless Nights
TTITLE5=Lust Or Love
TTITLE6=Kicks After Six
TTITLE7=Hit Between The Eyes
TTITLE8=Money And Fame
TTITLE9=Crazy World
TTITLE10=Send Me An Angel
EXTD=Chung PIC YEAR: 1990
EXTT0=
EXTT1=
EXTT2=
EXTT3=
EXTT4=
EXTT5=
EXTT6=
EXTT7=
EXTT8=
EXTT9=
EXTT10=
PLAYORDER=