Last change 2020.03.01 14:20:52 / Time 2021.10.22 10:22:43

Music Database

My complete CD collection digitalized using differnent Linux tools in connection with remote CDDB databases.
These web pages give overview of content according to CDDB info.

cddb/8a0b190b.txt

# xmcd
#
# Track frame offsets: 
#        150
#        3450
#        29086
#        53108
#        74333
#        99533
#        119474
#        136087
#        151908
#        174033
#        196833
#
# Disc length: 2843 seconds
#
# Revision: 0
# Processed by: cddbd v1.5.2PL0 Copyright (c) Steve Scherf et al.
# Submitted via: ExactAudioCopy v0.95b4
#
DISCID=8a0b190b
DTITLE=Samay / native spirit  NATURE
DYEAR=
DGENRE=Native American
TTITLE0=Intro / Intro
TTITLE1=Harmony / Harmony
TTITLE2=Not Available / Flying Condor
TTITLE3=Sanjuan / Sad San Juan
TTITLE4=Amanecer / Amanecer
TTITLE5=Nature / Nature
TTITLE6=Not Available / Jump To The Sun
TTITLE7=Not Available / Sound Of Silence
TTITLE8=Not Available / El Condor Pasa
TTITLE9=Eldollor / El Dolar
TTITLE10=Not Available / Phurun Runas
EXTD=
EXTT0=
EXTT1=
EXTT2=
EXTT3=
EXTT4=
EXTT5=
EXTT6=
EXTT7=
EXTT8=
EXTT9=
EXTT10=
PLAYORDER=
.