Last change 2020.03.01 14:20:52 / Time 2020.09.19 15:59:16

Music Database

My complete CD collection digitalized using differnent Linux tools in connection with remote CDDB databases.
These web pages give overview of content according to CDDB info.

cddb/8a09d10a.txt

# xmcd
#
# Track frame offsets:
#	150
#	26415
#	40950
#	56092
#	81980
#	94387
#	119200
#	140350
#	159467
#	176542
#
# Disc length: 2515 seconds
#
# Revision: 5
# Processed by: cddbd v1.5.2PL0 Copyright (c) Steve Scherf et al.
# Submitted via: audiograbber 1.83.01
#
DISCID=8a09d10a
DTITLE=Starfuckers (Kim Larsen) / Vogt Dem For Efterligninger
DYEAR=1978
DGENRE=Rock
TTITLE0=Blaffersangen
TTITLE1=Nanna
TTITLE2=Joanna
TTITLE3=Sylvesters Drøm
TTITLE4=Christianshavns Kanal
TTITLE5=Fi-Fi Dong
TTITLE6=To Sjæle
TTITLE7=Gør Mig Varm
TTITLE8=Hva' Gør Vi Nu, Lille Du
TTITLE9=Østre Gasværk
EXTD=
EXTT0=
EXTT1=
EXTT2=
EXTT3=
EXTT4=
EXTT5=
EXTT6=
EXTT7=
EXTT8=
EXTT9=
PLAYORDER=
.