Last change 2020.03.01 14:20:52 / Time 2021.12.01 15:57:34

Music Database

My complete CD collection digitalized using differnent Linux tools in connection with remote CDDB databases.
These web pages give overview of content according to CDDB info.

cddb/8a09070a.txt

# xmcd CD database file generated by Grip 3.2.0
# 
# Track frame offsets:
#       150
#       22420
#       41586
#       57020
#       71098
#       87124
#       106153
#       118357
#       134316
#       155542
# 
# Disc length: 2313 seconds
# 
# Revision: 1
# Submitted via: Grip 3.2.0
# 
DISCID=8a09070a
DTITLE=Gasolin / Black Box - Gasolin 5 - Gas 5
DYEAR=1975
DGENRE=rock
DID3=17
TTITLE0=Rabalderstræde
TTITLE1=Fatherless Hill
TTITLE2=Lonesome Avenue
TTITLE3=Sjagge
TTITLE4=Masser Af Succes
TTITLE5=Refrainet Er Frit
TTITLE6=Kvinde Min
TTITLE7=1975
TTITLE8=Sct. Emetri
TTITLE9=Good Time Charlie
EXTD=
EXTT0=
EXTT1=
EXTT2=
EXTT3=
EXTT4=
EXTT5=
EXTT6=
EXTT7=
EXTT8=
EXTT9=
PLAYORDER=