Last change 2020.03.01 14:20:52 / Time 2020.09.25 03:29:25

Music Database

My complete CD collection digitalized using differnent Linux tools in connection with remote CDDB databases.
These web pages give overview of content according to CDDB info.

cddb/8911760a.txt

# xmcd CD database file generated by Grip 3.0.7
# 
# Track frame offsets:
#       188
#       21845
#       51773
#       84605
#       112110
#       154680
#       205855
#       231755
#       258003
#       284980
# 
# Disc length: 4472 seconds
# 
# Revision: 3
# Submitted via: Grip 3.0.7
# 
DISCID=8911760a
DTITLE=Kitaro / Live In America
DYEAR=1991
DGENRE=newage
DID3=10
TTITLE0=Hajimari
TTITLE1=Sozo
TTITLE2=Koi
TTITLE3=Nageki
TTITLE4=Matsuri
TTITLE5=Reimei
TTITLE6=Silk Road
TTITLE7=Caravansary
TTITLE8=Cosmic Love
TTITLE9=The Light Of The Spirit
EXTD=YEAR: 1990 ID3G:  10
EXTT0=
EXTT1=
EXTT2=
EXTT3=
EXTT4=
EXTT5=
EXTT6=
EXTT7=
EXTT8=
EXTT9=
PLAYORDER=