Last change 2020.03.01 14:20:52 / Time 2021.12.01 16:21:29

Music Database

My complete CD collection digitalized using differnent Linux tools in connection with remote CDDB databases.
These web pages give overview of content according to CDDB info.

cddb/8909da0a.txt

# xmcd CD database file generated by Grip 3.0.4
# 
# Track frame offsets:
#       150
#       19150
#       35787
#       53775
#       80630
#       93562
#       113230
#       132187
#       147495
#       165450
# 
# Disc length: 2524 seconds
# 
# Revision: 1
# Submitted via: Grip 3.0.4
# 
DISCID=8909da0a
DTITLE=Buscando Caminos / Perumanta
DYEAR=2001
DGENRE=misc
DID3=99
TTITLE0=Quisiera
TTITLE1=Temporada
TTITLE2=Solo Tu
TTITLE3=Y Amor
TTITLE4=Bolivianita
TTITLE5=Tierra Antigua
TTITLE6=San Juan
TTITLE7=Como Olvidarte
TTITLE8=Susurro
TTITLE9=Aguas Claras
EXTD=YEAR: 2001  ID3G:  99
EXTT0=
EXTT1=
EXTT2=
EXTT3=
EXTT4=
EXTT5=
EXTT6=
EXTT7=
EXTT8=
EXTT9=
PLAYORDER=