Last change 2020.03.01 14:20:52 / Time 2021.12.01 15:07:41

Music Database

My complete CD collection digitalized using differnent Linux tools in connection with remote CDDB databases.
These web pages give overview of content according to CDDB info.

cddb/860a590b.txt

# xmcd CD database file generated by Grip 3.0.4
# 
# Track frame offsets:
#       150
#       19360
#       39528
#       61785
#       76765
#       94058
#       111020
#       129548
#       145165
#       161665
#       180393
# 
# Disc length: 2651 seconds
# 
# Revision: 4
# Submitted via: Grip 3.0.4
# 
DISCID=860a590b
DTITLE=R.E.M. / Out of Time
DYEAR=1991
DGENRE=misc
DID3=17
TTITLE0=Radio song
TTITLE1=Losing my religion
TTITLE2=Low
TTITLE3=Near wild heaven
TTITLE4=Endgame
TTITLE5=Shiny happy people
TTITLE6=Belong
TTITLE7=Half a world away
TTITLE8=Texarkana
TTITLE9=Country feedback
TTITLE10=Me in honey
EXTD=
EXTT0=
EXTT1=
EXTT2=
EXTT3=
EXTT4=
EXTT5=
EXTT6=
EXTT7=
EXTT8=
EXTT9=
EXTT10=
PLAYORDER=