Last change 2020.03.01 14:20:52 / Time 2021.12.07 03:35:46

Music Database

My complete CD collection digitalized using differnent Linux tools in connection with remote CDDB databases.
These web pages give overview of content according to CDDB info.

cddb/86094c0a.txt

# xmcd CD database file generated by Grip 3.3.1
# 
# Track frame offsets:
#       183
#       19513
#       34995
#       54553
#       74468
#       93215
#       108573
#       129243
#       144598
#       161148
# 
# Disc length: 2382 seconds
# 
# Revision: 3
# Submitted via: Grip 3.3.1
# 
DISCID=86094c0a
DTITLE=Johnny Madsen / Bounty Blue
DYEAR=1991
DGENRE=rock
DID3=17
TTITLE0=Johnny The Blues
TTITLE1=Get Along
TTITLE2=Griseriet På Bounty
TTITLE3=Vinden Vender
TTITLE4=Mørke Senorita
TTITLE5=Dans Amigo
TTITLE6=Bag Bakken
TTITLE7=John Silver
TTITLE8=Mona Lisa
TTITLE9=Manden Med Stråhatten
EXTD=Record number: Pladecompagniet year 1991: PCCD 8025\n
EXTT0=
EXTT1=
EXTT2=
EXTT3=
EXTT4=
EXTT5=
EXTT6=
EXTT7=
EXTT8=
EXTT9=
PLAYORDER=