Last change 2020.03.01 14:20:52 / Time 2021.10.22 08:57:46

Music Database

My complete CD collection digitalized using differnent Linux tools in connection with remote CDDB databases.
These web pages give overview of content according to CDDB info.

cddb/86091e09.txt

# xmcd CD database file generated by Grip 3.2.0
# 
# Track frame offsets:
#       182
#       20445
#       37402
#       53170
#       66737
#       89390
#       108412
#       127830
#       148147
# 
# Disc length: 2336 seconds
# 
# Revision: 2
# Submitted via: Grip 3.2.0
# 
DISCID=86091e09
DTITLE=Kim Larsen / Jungle Dreams
DYEAR=1981
DGENRE=rock
DID3=17
TTITLE0=Rock'n'Roll City
TTITLE1=Tekamaki Sidewalk Stereo Machine
TTITLE2=The Flirt
TTITLE3=Still Love You
TTITLE4=Jungle Dreams
TTITLE5=The Boys
TTITLE6=Dreamer
TTITLE7=Donnez-Moi Du feu
TTITLE8=Hunger
EXTD=
EXTT0=
EXTT1=
EXTT2=
EXTT3=
EXTT4=
EXTT5=
EXTT6=
EXTT7=
EXTT8=
PLAYORDER=