Last change 2020.03.01 14:20:52 / Time 2020.09.24 08:37:21

Music Database

My complete CD collection digitalized using differnent Linux tools in connection with remote CDDB databases.
These web pages give overview of content according to CDDB info.

cddb/8608b80a.txt

# xmcd CD database file generated by Grip 3.3.1
# 
# Track frame offsets:
#       150
#       18232
#       35127
#       48567
#       64995
#       84287
#       106957
#       121212
#       130732
#       145900
# 
# Disc length: 2234 seconds
# 
# Revision: 4
# Submitted via: Grip 3.3.1
# 
DISCID=8608b80a
DTITLE=Kliche / Okay Okay Boys
DYEAR=1982
DGENRE=rock
DID3=17
TTITLE0=Bag De Røde Bjerge
TTITLE1=Pil På Himlen
TTITLE2=Patrulje
TTITLE3=Bravo Charlie
TTITLE4=Oppenheimers Formiddag
TTITLE5=Okay Okay Boys
TTITLE6=Brændende Kakler
TTITLE7=Mama Mama
TTITLE8=International Klein Blue
TTITLE9=Ansigt Til Ansigt
EXTD=\nRecord number: Medley Recoreds. MdCD 6090\n
EXTT0=
EXTT1=
EXTT2=
EXTT3=
EXTT4=
EXTT5=
EXTT6=
EXTT7=
EXTT8=
EXTT9=
PLAYORDER=