Last change 2020.03.01 14:20:52 / Time 2021.10.22 09:45:59

Music Database

My complete CD collection digitalized using differnent Linux tools in connection with remote CDDB databases.
These web pages give overview of content according to CDDB info.

cddb/85097c0c.txt

# xmcd
#
# Track frame offsets: 
#        150
#        15815
#        26753
#        45078
#        70180
#        81120
#        94198
#        117223
#        128718
#        143848
#        159028
#        167865
#
# Disc length: 2430 seconds
#
# Revision: 4
# Processed by: cddbd v1.5.2PL0 Copyright (c) Steve Scherf et al.
# Submitted via: ExactAudioCopy v0.95a5
#
DISCID=85097c0c
DTITLE=Antonio Vivaldi / Four Seasons
DYEAR=1987
DGENRE=Classical
TTITLE0=SPRING - Allegro
TTITLE1=SPRING - Largo
TTITLE2=SPRING - Allegro
TTITLE3=SUMMER - Allegro
TTITLE4=SUMMER - Adagio
TTITLE5=SUMMER - Presto
TTITLE6=AUTUMN - Allegro
TTITLE7=AUTUMN - Adagio
TTITLE8=AUTUMN - Allegro
TTITLE9=WINTER - Allegro Non Molto
TTITLE10=WINTER - Largo
TTITLE11=WINTER - Allegro
EXTD=Ettore Stratta conducting The Baroque Chamber Orchestra
EXTT0=Discover The Classics
EXTT1=Discover The Classics
EXTT2=Discover The Classics
EXTT3=Discover The Classics
EXTT4=Discover The Classics
EXTT5=Discover The Classics
EXTT6=Discover The Classics
EXTT7=Discover The Classics
EXTT8=Discover The Classics
EXTT9=Discover The Classics
EXTT10=Discover The Classics
EXTT11=Discover The Classics
PLAYORDER=
.