Last change 2020.03.01 14:20:52 / Time 2021.10.18 11:56:09

Music Database

My complete CD collection digitalized using differnent Linux tools in connection with remote CDDB databases.
These web pages give overview of content according to CDDB info.

cddb/8509230a.txt

# xmcd CD database file generated by Grip 3.2.0
# 
# Track frame offsets:
#       150
#       19346
#       39063
#       54988
#       79262
#       88209
#       108928
#       126362
#       141594
#       162469
# 
# Disc length: 2341 seconds
# 
# Revision: 2
# Submitted via: Grip 3.2.0
# 
DISCID=8509230a
DTITLE=Gasolin / Black Box - Gasolin 2
DYEAR=1972
DGENRE=rock
DID3=17
TTITLE0=På En Sommerdag
TTITLE1=Se Din By Fra Tårnets Top
TTITLE2=Fi-Fi Dong
TTITLE3=Snehvide
TTITLE4=Nanna
TTITLE5=Druktur Nr. 1234
TTITLE6=På Banen (Derudaf)
TTITLE7=Balladen Om Provoknud
TTITLE8=Hvorfor Er Der Aldrig Nogen Der Tør Tage En Chance
TTITLE9=Min Tøs
EXTD=
EXTT0=
EXTT1=
EXTT2=
EXTT3=
EXTT4=
EXTT5=
EXTT6=
EXTT7=
EXTT8=
EXTT9=
PLAYORDER=