Last change 2020.03.01 14:20:52 / Time 2021.10.22 10:49:41

Music Database

My complete CD collection digitalized using differnent Linux tools in connection with remote CDDB databases.
These web pages give overview of content according to CDDB info.

cddb/84092e0b.txt

# xmcd CD database file generated by Grip 3.3.1
# 
# Track frame offsets:
#       150
#       12812
#       27650
#       41320
#       56540
#       75582
#       95640
#       106207
#       121407
#       144532
#       160747
# 
# Disc length: 2352 seconds
# 
# Revision: 2
# Processed by: cddbd v1.5.2PL0 Copyright (c) Steve Scherf et al.
# Submitted via: Grip 3.3.1
# 
DISCID=84092e0b
DTITLE=Peter Caulton / Hard Road Tough Country
DYEAR=1997
DGENRE=Country
TTITLE0=WHO DROVE THE MYSTERY TRAIN
TTITLE1=FRUHSTUCKEN
TTITLE2=WHAT ARE THOSE THINGS
TTITLE3=HARD ROAD TOUGH COUNTRY
TTITLE4=THREE VERSES OF DIXIE
TTITLE5=YOU AIN'T FELT NOTHING YET
TTITLE6=GO DOWN GAMBLING
TTITLE7=THE LEAVING DOOR
TTITLE8=UP WITH THE WIND
TTITLE9=IF YOU EVER LEAVE ME
TTITLE10=DAYS WORK'S DONE
EXTD=
EXTT0=
EXTT1=
EXTT2=
EXTT3=
EXTT4=
EXTT5=
EXTT6=
EXTT7=
EXTT8=
EXTT9=
EXTT10=
PLAYORDER=
.