Last change 2020.03.01 14:20:52 / Time 2021.10.22 10:11:22

Music Database

My complete CD collection digitalized using differnent Linux tools in connection with remote CDDB databases.
These web pages give overview of content according to CDDB info.

cddb/8409020a.txt

# xmcd CD database file generated by Grip 3.0.7
# 
# Track frame offsets:
#       150
#       18402
#       33845
#       62970
#       81922
#       96785
#       112122
#       129690
#       144587
#       157985
# 
# Disc length: 2308 seconds
# 
# Revision: 9
# Submitted via: Grip 3.0.7
# 
DISCID=8409020a
DTITLE=Chet Atkins & Mark Knopfler / Neck And Neck
DYEAR=1990
DGENRE=country
DID3=17
TTITLE0=Poor Boy Blues
TTITLE1=Sweet Dreams
TTITLE2=There'll Be Some Changes Made
TTITLE3=Just One Time
TTITLE4=So Soft, Your Goodbye
TTITLE5=Yakety Axe
TTITLE6=Tears
TTITLE7=Tahitian Skies
TTITLE8=I'll See You In My Dreams
TTITLE9=The Next Time I'm In Town
EXTD=
EXTT0=
EXTT1=
EXTT2=
EXTT3=
EXTT4=
EXTT5=
EXTT6=
EXTT7=
EXTT8=
EXTT9=
PLAYORDER=