Last change 2020.03.01 14:20:52 / Time 2021.10.22 09:20:10

Music Database

My complete CD collection digitalized using differnent Linux tools in connection with remote CDDB databases.
These web pages give overview of content according to CDDB info.

cddb/83099009.txt

# xmcd CD database file generated by Grip 3.3.1
# 
# Track frame offsets:
#       150
#       21448
#       40475
#       64375
#       87338
#       105875
#       124600
#       141668
#       163395
# 
# Disc length: 2450 seconds
# 
# Revision: 7
# Submitted via: Grip 3.3.1
# 
DISCID=83099009
DTITLE=Hanne Boel / Dark Passion
DYEAR=1995
DGENRE=rock
DID3=13
TTITLE0=Games
TTITLE1=( I Wanna ) Make Love To You
TTITLE2=Light In Your Heart
TTITLE3=How Do You Stop
TTITLE4=If You Want My Body
TTITLE5=Keep The Clock Running
TTITLE6=Warm And Tender Love
TTITLE7=Strange World
TTITLE8=Cry For You
EXTD=MDCD 6370
EXTT0=
EXTT1=
EXTT2=
EXTT3=
EXTT4=
EXTT5=
EXTT6=
EXTT7=
EXTT8=
PLAYORDER=