Last change 2020.03.01 14:20:52 / Time 2021.10.18 11:25:24

Music Database

My complete CD collection digitalized using differnent Linux tools in connection with remote CDDB databases.
These web pages give overview of content according to CDDB info.

cddb/820c2e0a.txt

# xmcd CD database file generated by Grip 3.3.1
# 
# Track frame offsets:
#       150
#       20668
#       44450
#       61383
#       84278
#       110068
#       132408
#       153238
#       166510
#       187280
# 
# Disc length: 3120 seconds
# 
# Revision: 14
# Submitted via: Grip 3.3.1
# 
DISCID=820c2e0a
DTITLE=Neil Young / Harvest Moon
DYEAR=1992
DGENRE=rock
DID3=80
TTITLE0=Unknown Legend
TTITLE1=From Hank To Hendrix
TTITLE2=You And Me
TTITLE3=Harvest Moon
TTITLE4=War Of Man
TTITLE5=One Of These Days
TTITLE6=Such A Woman
TTITLE7=Old King
TTITLE8=Dreamin' Man
TTITLE9=Natural Beauty
EXTD=(c)1992 Reprise Records / WEA\\rKatalog: 093624505723\\rupc 93624
EXTD=50570207\\rProduced by Neil Young and Ben Keith\\rTrack 7 arrange
EXTD=d by Jack Nitzsche\\r\\rAlbum Notes:\\rQ Magazine (12/99,p.74) -I
EXTD=ncluded in Q Magazine's "90 Best Albums Of The 1990s." Personnel:
EXTD= Neil Young (vocals, guitar, harmonica); Kenny Buttrey,Tim Drummo
EXTD=nd, Ben Keith, Spooner Oldham, Astrid Young, Larry Cragg
EXTT0=
EXTT1=
EXTT2=
EXTT3=
EXTT4=
EXTT5=
EXTT6=
EXTT7=
EXTT8=
EXTT9=
PLAYORDER=