Last change 2020.03.01 14:20:52 / Time 2021.12.01 16:05:49

Music Database

My complete CD collection digitalized using differnent Linux tools in connection with remote CDDB databases.
These web pages give overview of content according to CDDB info.

cddb/8208cc0a.txt

# xmcd CD database file generated by Grip 3.3.1
# 
# Track frame offsets:
#       183
#       20800
#       35160
#       53573
#       67605
#       82883
#       98238
#       111688
#       129848
#       139090
# 
# Disc length: 2254 seconds
# 
# Revision: 22
# Submitted via: Grip 3.3.1
# 
DISCID=8208cc0a
DTITLE=Neil Young / Harvest
DYEAR=1972
DGENRE=folk
DID3=80
TTITLE0=Out On The Weekend
TTITLE1=Harvest
TTITLE2=A Man Needs A Maid
TTITLE3=Heart Of Gold
TTITLE4=Are You Ready For The Country?
TTITLE5=Old Man
TTITLE6=There's A World
TTITLE7=Alabama
TTITLE8=The Needle And The Damage Done
TTITLE9=Words (Between The Lines Of Age)
EXTD=YEAR: 1972
EXTT0=
EXTT1=
EXTT2=
EXTT3=
EXTT4=
EXTT5=
EXTT6=
EXTT7=
EXTT8=
EXTT9=
PLAYORDER=