Last change 2020.03.01 14:20:52 / Time 2021.10.18 11:24:36

Music Database

My complete CD collection digitalized using differnent Linux tools in connection with remote CDDB databases.
These web pages give overview of content according to CDDB info.

cddb/8208b60b.txt

# xmcd CD database file generated by Grip 3.3.1
# 
# Track frame offsets:
#       150
#       14110
#       33667
#       52557
#       68757
#       82722
#       94557
#       109007
#       124377
#       137950
#       159060
# 
# Disc length: 2232 seconds
# 
# Revision: 3
# Submitted via: Grip 3.3.1
# 
DISCID=8208b60b
DTITLE=Gasolin' / A foreign affair CD1
DYEAR=1977
DGENRE=rock
DID3=17
TTITLE0=Girl you got me lonely
TTITLE1=Closer
TTITLE2=Jailbait
TTITLE3=Let it flow
TTITLE4=Snow queen
TTITLE5=Killin' time
TTITLE6=In the wings
TTITLE7=Highschool
TTITLE8=Stop
TTITLE9=Sing my song
TTITLE10=Magic garden
EXTD=Dobbelt CD med gasolin' sagne fra perioden 1973-77 oprindeligt be
EXTD=regnet til det engelsktalende marked.\n\nRecrd number: Columbia 4
EXTD=87177-2 (Sony music entertainment (Denmark) A/S\n"Columbia is the
EXTD= exclusive tracemark of sony music Entertainment INC.\n\nIndspill
EXTD=et i Sweet Silence Studios.\nAmagerfebruar 1977\nEngineer: Freddy
EXTD= Hansson g Flemming Rasmussen\nMixed af  Pappalardi og Hansson i 
EXTD=Crieria Recording Studios, Miami, marts 1977\n
EXTT0=
EXTT1=
EXTT2=
EXTT3=
EXTT4=
EXTT5=
EXTT6=
EXTT7=
EXTT8=
EXTT9=
EXTT10=
PLAYORDER=