Last change 2020.03.01 14:20:52 / Time 2021.10.18 11:17:32

Music Database

My complete CD collection digitalized using differnent Linux tools in connection with remote CDDB databases.
These web pages give overview of content according to CDDB info.

cddb/810bd109.txt

# xmcd CD database file generated by Grip 3.3.1
# 
# Track frame offsets:
#       182
#       7320
#       44312
#       74107
#       105272
#       129110
#       153547
#       185847
#       208790
# 
# Disc length: 3027 seconds
# 
# Revision: 0
# Submitted via: Grip 3.3.1
# 
DISCID=810bd109
DTITLE=Anne Linnet / Univers 2
DYEAR=
DGENRE=rock
DID3=17
TTITLE0=Intro
TTITLE1=Marquis De Sade
TTITLE2=Nattog
TTITLE3=Glor på vinduer
TTITLE4=Misbrugt og forladt
TTITLE5=Neondans
TTITLE6=Lever nok endnu en dag
TTITLE7=Imorgen
TTITLE8=Gadepi'r
EXTD=1978 Marquis De Sade
EXTT0=
EXTT1=
EXTT2=
EXTT3=
EXTT4=
EXTT5=
EXTT6=
EXTT7=
EXTT8=
PLAYORDER=