Last change 2020.03.01 14:20:52 / Time 2021.10.18 11:22:15

Music Database

My complete CD collection digitalized using differnent Linux tools in connection with remote CDDB databases.
These web pages give overview of content according to CDDB info.

cddb/810af00b.txt

# xmcd CD database file generated by Grip 3.0.7
# 
# Track frame offsets:
#       150
#       19352
#       40200
#       56472
#       76097
#       96952
#       120277
#       137600
#       160027
#       176305
#       193825
# 
# Disc length: 2802 seconds
# 
# Revision: 9
# Submitted via: Grip 3.0.7
# 
DISCID=810af00b
DTITLE=Midnight Oil / Diesel And Dust
DYEAR=1987
DGENRE=rock
DID3=13
TTITLE0=Beds Are Burning
TTITLE1=Put Down That Weapon
TTITLE2=Dreamworld
TTITLE3=Arctic World
TTITLE4=Warakurna
TTITLE5=The Dead Heart
TTITLE6=Whoah
TTITLE7=Bullroarer
TTITLE8=Sell My Soul
TTITLE9=Sometimes
TTITLE10=Gunbarrel Highway
EXTD=YEAR: 1987 ID3G: 13
EXTT0=
EXTT1=
EXTT2=
EXTT3=
EXTT4=
EXTT5=
EXTT6=
EXTT7=
EXTT8=
EXTT9=
EXTT10=
PLAYORDER=