Last change 2020.03.01 14:20:52 / Time 2021.10.22 10:35:24

Music Database

My complete CD collection digitalized using differnent Linux tools in connection with remote CDDB databases.
These web pages give overview of content according to CDDB info.

cddb/810a9b0b.txt

# xmcd CD database file generated by Grip 3.3.1
# 
# Track frame offsets:
#       150
#       24825
#       45143
#       58275
#       79401
#       92987
#       108022
#       132882
#       151884
#       172960
#       186993
# 
# Disc length: 2717 seconds
# 
# Revision: 0
# Submitted via: Grip 3.3.1
# 
DISCID=810a9b0b
DTITLE=Dan Klarskov & The Honey Drippers / Debut
DYEAR=1998
DGENRE=blues
DID3=0
TTITLE0=The Honeydripper
TTITLE1=I Left My Baby
TTITLE2=Wee Wee Baby
TTITLE3=Night and Day
TTITLE4=Strollin' with Bone
TTITLE5=Back O' Town Blues
TTITLE6=I Wish You Were Mine
TTITLE7=T-Bone Shuffle
TTITLE8=My Baby's Comin' Back
TTITLE9=Jealous Woman
TTITLE10=Git These Blues off me
EXTD=
EXTT0=
EXTT1=
EXTT2=
EXTT3=
EXTT4=
EXTT5=
EXTT6=
EXTT7=
EXTT8=
EXTT9=
EXTT10=
PLAYORDER=