Last change 2020.03.01 14:20:52 / Time 2021.10.22 10:11:58

Music Database

My complete CD collection digitalized using differnent Linux tools in connection with remote CDDB databases.
These web pages give overview of content according to CDDB info.

cddb/810a7c09.txt

# xmcd CD database file generated by Grip 3.0.7
# 
# Track frame offsets:
#       150
#       20415
#       44262
#       68937
#       97422
#       106937
#       125990
#       145372
#       167292
# 
# Disc length: 2686 seconds
# 
# Revision: 24
# Submitted via: Grip 3.0.7
# 
DISCID=810a7c09
DTITLE=Yes / 90125
DYEAR=1983
DGENRE=rock
DID3=92
TTITLE0=Owner Of A Lonely Heart
TTITLE1=Hold On
TTITLE2=It Can Happen
TTITLE3=Changes
TTITLE4=Cinema
TTITLE5=Leave It
TTITLE6=Our Song
TTITLE7=City Of Love
TTITLE8=Hearts
EXTD=
EXTT0=
EXTT1=
EXTT2=
EXTT3=
EXTT4=
EXTT5=
EXTT6=
EXTT7=
EXTT8=
PLAYORDER=