Last change 2020.03.01 14:20:52 / Time 2020.09.25 03:52:05

Music Database

My complete CD collection digitalized using differnent Linux tools in connection with remote CDDB databases.
These web pages give overview of content according to CDDB info.

cddb/800dec09.txt

# xmcd CD database file generated by Grip 3.3.1
# 
# Track frame offsets:
#       150
#       12577
#       35592
#       63502
#       84780
#       112300
#       130785
#       176134
#       221625
# 
# Disc length: 3566 seconds
# 
# Revision: 1
# Submitted via: Grip 3.3.1
# 
DISCID=800dec09
DTITLE=Various Artists / Music & Mantra Of Tibet
DYEAR=1960
DGENRE=newage
DID3=12
TTITLE0=Wel Coming Music
TTITLE1=Traditionel Chant
TTITLE2=Praying Music
TTITLE3=Sound of Singing Bowls
TTITLE4=Invitation of Palden Lhamo
TTITLE5=Folk Song of Nang Ma Kalpa
TTITLE6=Om Mane Padme Om
TTITLE7=Mantra Of Abalokiteswor
TTITLE8=Mantra Of Mahakal
EXTD=
EXTT0=
EXTT1=
EXTT2=
EXTT3=
EXTT4=
EXTT5=
EXTT6=
EXTT7=
EXTT8=
PLAYORDER=