Last change 2020.03.01 14:20:52 / Time 2021.10.18 12:13:51

Music Database

My complete CD collection digitalized using differnent Linux tools in connection with remote CDDB databases.
These web pages give overview of content according to CDDB info.

cddb/80080e0a.txt

# xmcd CD database file generated by Grip 3.3.1
# 
# Track frame offsets:
#       150
#       16162
#       36827
#       50247
#       65337
#       78390
#       93517
#       107680
#       122350
#       137860
# 
# Disc length: 2064 seconds
# 
# Revision: 4
# Submitted via: Grip 3.3.1
# 
DISCID=80080e0a
DTITLE=Shu-bi-dua / Stærk Tobak!!! (Bonus CD)
DYEAR=1991
DGENRE=rock
DID3=12
TTITLE0=Tryk På
TTITLE1=Hvalborg
TTITLE2=Karbad Baby
TTITLE3=Står På En Alpetop
TTITLE4=Stærk Tobak
TTITLE5=Melogik
TTITLE6=Den Grønne
TTITLE7=Fed Rock
TTITLE8=Walkmand!
TTITLE9=Min Kone Og Min Mor
EXTD=CD 3 of 3 (Live Recordings)\n\nRecordnumber Elap Music 4615CD\n
EXTT0=
EXTT1=
EXTT2=
EXTT3=
EXTT4=
EXTT5=
EXTT6=
EXTT7=
EXTT8=
EXTT9=
PLAYORDER=