Last change 2020.03.01 14:20:52 / Time 2021.10.22 10:30:21

Music Database

My complete CD collection digitalized using differnent Linux tools in connection with remote CDDB databases.
These web pages give overview of content according to CDDB info.

cddb/7e090b0a.txt

# xmcd CD database file generated by Grip 3.3.1
# 
# Track frame offsets:
#       150
#       23035
#       40885
#       63872
#       82137
#       99535
#       119962
#       136517
#       155437
#       158885
# 
# Disc length: 2317 seconds
# 
# Revision: 1
# Submitted via: Grip 3.3.1
# 
DISCID=7e090b0a
DTITLE=Cyndi Lauper / She's So Unusual
DYEAR=1983
DGENRE=misc
DID3=13
TTITLE0=Money Changes Everything
TTITLE1=Girls Just Want To Have Fun
TTITLE2=When You Were Mine
TTITLE3=Time After Time
TTITLE4=She Bop
TTITLE5=All Through The Night
TTITLE6=Witness
TTITLE7=I'll Kiss You
TTITLE8=He's So Unusual
TTITLE9=Yeah Yeah
EXTD=
EXTT0=
EXTT1=
EXTT2=
EXTT3=
EXTT4=
EXTT5=
EXTT6=
EXTT7=
EXTT8=
EXTT9=
PLAYORDER=