Last change 2020.03.01 14:20:52 / Time 2021.12.07 02:09:02

Music Database

My complete CD collection digitalized using differnent Linux tools in connection with remote CDDB databases.
These web pages give overview of content according to CDDB info.

cddb/7d07830a.txt

# xmcd CD database file generated by Grip 3.0.4
# 
# Track frame offsets:
#       150
#       15652
#       28490
#       45300
#       58635
#       71280
#       86347
#       102085
#       117557
#       131482
# 
# Disc length: 1925 seconds
# 
# Revision: 1
# Submitted via: Grip 3.0.4
# 
DISCID=7d07830a
DTITLE=Waylon Jennings / Too Dumb For New York City, Too Ugly For L.A.
DYEAR=
DGENRE=country
DID3=-1
TTITLE0=Just Talkin'
TTITLE1=SilentPartners
TTITLE2=Didn'tWe Shine
TTITLE3=Too Dumb For New York City
TTITLE4=Armed and Dangerous
TTITLE5=Heartaches Older Than You
TTITLE6=Hank Williams Syndrome
TTITLE7=ALot Of Good
TTITLE8=I'veGot My Faults
TTITLE9=Smokey On Your Front Door
EXTD=
EXTT0=
EXTT1=
EXTT2=
EXTT3=
EXTT4=
EXTT5=
EXTT6=
EXTT7=
EXTT8=
EXTT9=
PLAYORDER=