Last change 2020.03.01 14:20:52 / Time 2021.10.18 11:26:52

Music Database

My complete CD collection digitalized using differnent Linux tools in connection with remote CDDB databases.
These web pages give overview of content according to CDDB info.

cddb/7c128c1b.txt

# xmcd CD database file generated by Grip 3.0.7
# 
# Track frame offsets:
#       150
#       10705
#       19417
#       30005
#       40877
#       50745
#       62252
#       72627
#       84955
#       99245
#       109657
#       119062
#       131692
#       141827
#       152207
#       164085
#       173597
#       187090
#       204152
#       219687
#       229957
#       261790
#       276195
#       289657
#       303247
#       322635
#       339947
# 
# Disc length: 4750 seconds
# 
# Revision: 98
# Submitted via: Grip 3.0.7
# 
DISCID=7c128c1b
DTITLE=The Beatles / 1
DYEAR=2000
DGENRE=blues
DID3=17
TTITLE0=Love me do
TTITLE1=From me to you
TTITLE2=She loves you
TTITLE3=I want to hold your hand
TTITLE4=Can't buy me love
TTITLE5=A hard day's night
TTITLE6=I feel fine
TTITLE7=Eight days a week
TTITLE8=Ticket to ride
TTITLE9=Help!
TTITLE10=Yesterday
TTITLE11=Day tripper
TTITLE12=We can work it out
TTITLE13=Paperback writer
TTITLE14=Yellow submarine
TTITLE15=Eleanor Rigby
TTITLE16=Penny Lane
TTITLE17=All you need is love
TTITLE18=Hello, goodbye
TTITLE19=Lady Madonna
TTITLE20=Hey Jude
TTITLE21=Get back
TTITLE22=The ballad of John and Yoko
TTITLE23=Something
TTITLE24=Come together
TTITLE25=Let it be
TTITLE26=The long and winding road
EXTD=YEAR: 2000
EXTT0=
EXTT1=
EXTT2=
EXTT3=
EXTT4=
EXTT5=
EXTT6=
EXTT7=
EXTT8=
EXTT9=
EXTT10=
EXTT11=
EXTT12=
EXTT13=
EXTT14=
EXTT15=
EXTT16=
EXTT17=
EXTT18=
EXTT19=
EXTT20=
EXTT21=
EXTT22=
EXTT23=
EXTT24=
EXTT25=
EXTT26=
PLAYORDER=