Last change 2020.03.01 14:20:52 / Time 2021.10.22 10:32:51

Music Database

My complete CD collection digitalized using differnent Linux tools in connection with remote CDDB databases.
These web pages give overview of content according to CDDB info.

cddb/7c09b609.txt

# xmcd CD database file generated by Grip 3.0.7
# 
# Track frame offsets:
#       183
#       18225
#       42550
#       57580
#       76400
#       89828
#       115043
#       143223
#       164550
# 
# Disc length: 2488 seconds
# 
# Revision: 7
# Submitted via: Grip 3.0.7
# 
DISCID=7c09b609
DTITLE=Dire Straits / Dire Straits
DYEAR=1978
DGENRE=rock
DID3=17
TTITLE0=Down to the waterline
TTITLE1=Water of love
TTITLE2=Setting me up
TTITLE3=Six blade knife
TTITLE4=Southbound again
TTITLE5=Sultans of swing
TTITLE6=In the gallery
TTITLE7=Wild west end
TTITLE8=Lions
EXTD=YEAR: 1978 ID3G: 17
EXTT0=
EXTT1=
EXTT2=
EXTT3=
EXTT4=
EXTT5=
EXTT6=
EXTT7=
EXTT8=
PLAYORDER=