Last change 2020.03.01 14:20:52 / Time 2020.09.25 03:42:43

Music Database

My complete CD collection digitalized using differnent Linux tools in connection with remote CDDB databases.
These web pages give overview of content according to CDDB info.

cddb/7909ba09.txt

# xmcd CD database file generated by Grip 3.3.1
# 
# Track frame offsets:
#       182
#       18307
#       39730
#       54892
#       64400
#       91402
#       114792
#       134695
#       157282
# 
# Disc length: 2492 seconds
# 
# Revision: 1
# Submitted via: Grip 3.3.1
# 
DISCID=7909ba09
DTITLE=Anne Linnet / Univers 3
DYEAR=
DGENRE=rock
DID3=17
TTITLE0=Venus
TTITLE1=Hils Din Mor
TTITLE2=Snehvide
TTITLE3=Hver Dag
TTITLE4=T be
TTITLE5=En Elsker Fra Eller Til
TTITLE6=Bli' Hvor Dit Hjerte Er
TTITLE7=Ingen Anden Dr m
TTITLE8=Forsvinder
EXTD=
EXTT0=
EXTT1=
EXTT2=
EXTT3=
EXTT4=
EXTT5=
EXTT6=
EXTT7=
EXTT8=
PLAYORDER=