Last change 2020.03.01 14:20:52 / Time 2021.12.01 16:11:33

Music Database

My complete CD collection digitalized using differnent Linux tools in connection with remote CDDB databases.
These web pages give overview of content according to CDDB info.

cddb/7909b00b.txt

#
# Track frame offsets:
#	150
#	15751
#	29338
#	49475
#	63048
#	86420
#	99103
#	118777
#	138802
#	155459
#	170458
#
# Disc length: 2482 seconds
#
# Submitted via: cddb-tool 0.4.7
#
#blues,classical,country,data,folk,jazz,newage,reggae,rock,soundtrack,misc
#CATEGORY=misc
DISCID=7909b00b
DTITLE='Promotion CD'	[from FreeWillies]
DYEAR=
DGENRE=
TTITLE0=Sittin' in a Window
TTITLE1=Det var Inga og Katinka og smukke Charley pa sin Harley
TTITLE2=Take it easy
TTITLE3=Whenever You're Ready
TTITLE4=Feel it
TTITLE5=Keep on running
TTITLE6=Leaving New York
TTITLE7=Johnny the blues
TTITLE8=Imitation Of Life
TTITLE9=Johnny
TTITLE10=Laugh 'n' A 1/2
EXTD=
EXTT0=
EXTT1=
EXTT2=
EXTT3=
EXTT4=
EXTT5=
EXTT6=
EXTT7=
EXTT8=
EXTT9=
EXTT10=
PLAYORDER=