Last change 2020.03.01 14:20:52 / Time 2021.10.18 11:44:29

Music Database

My complete CD collection digitalized using differnent Linux tools in connection with remote CDDB databases.
These web pages give overview of content according to CDDB info.

cddb/770a360a.txt

# xmcd CD database file generated by Grip 3.3.1
# 
# Track frame offsets:
#       150
#       19425
#       40845
#       62192
#       81317
#       99130
#       116232
#       136705
#       158080
#       174052
# 
# Disc length: 2616 seconds
# 
# Revision: 43
# Submitted via: Grip 3.3.1
# 
DISCID=770a360a
DTITLE=Alphaville / Forever Young
DYEAR=1984
DGENRE=rock
DID3=13
TTITLE0=A Victory Of Love
TTITLE1=Summer In Berlin
TTITLE2=Big In Japan
TTITLE3=To Germany With Love
TTITLE4=Fallen Angel
TTITLE5=Forever Young
TTITLE6=In The Mood
TTITLE7=Sounds Like A Melody
TTITLE8=Lies
TTITLE9=The Jet Set
EXTD=
EXTT0=
EXTT1=
EXTT2=
EXTT3=
EXTT4=
EXTT5=
EXTT6=
EXTT7=
EXTT8=
EXTT9=
PLAYORDER=