Last change 2020.03.01 14:20:52 / Time 2020.09.25 03:05:39

Music Database

My complete CD collection digitalized using differnent Linux tools in connection with remote CDDB databases.
These web pages give overview of content according to CDDB info.

cddb/760fa71a.txt

# xmcd CD database file generated by Grip 3.0.7
# 
# Track frame offsets:
#       150
#       9659
#       21886
#       32432
#       43944
#       53061
#       62769
#       71754
#       82814
#       93750
#       104843
#       116002
#       128155
#       140183
#       153375
#       165991
#       177510
#       190019
#       203863
#       215358
#       227463
#       237073
#       247044
#       263247
#       273403
#       289474
# 
# Disc length: 4009 seconds
# 
# Revision: 1
# Submitted via: Grip 3.0.7
# 
DISCID=760fa71a
DTITLE=Various Artists / One Hit Wonders - CD1
DYEAR=2001
DGENRE=misc
DID3=12
TTITLE0=Wanda Jackson / Lets' have a party
TTITLE1=The Shirelles / Will you love me tomorrow
TTITLE2=Bobby Vee / Rubber ball
TTITLE3=Johnny Tillotson / Poetry in motion
TTITLE4=The David Rose Orchestra / The stripper
TTITLE5=Bee Bumble & The Stingers / Nut rocker
TTITLE6=Frank Ifield / I remember you
TTITLE7=Chris Montez / Let's dance
TTITLE8=Chubby Checker / Limbo rock
TTITLE9=Little Eva / The loco-motion
TTITLE10=Paul & Paula / Hey Paula
TTITLE11=P.J. Proby / Hold me
TTITLE12=Peter & Gordon / A world without love
TTITLE13=The Honeycombs / Have I the right
TTITLE14=Shangri-Las / Leader of the pack
TTITLE15=Jay & The Americans / Cara mia
TTITLE16=Al Martino / Spanish eyes
TTITLE17=The McCoys / Hang on sloopy
TTITLE18=Chris Andrews / Yesterday man
TTITLE19=The Easybeats / Friday on my mind
TTITLE20=Napoleon XIV / They're coming to take me away
TTITLE21=David Garrick / Dear Mrs. Applebee
TTITLE22=Chris Farlowe / Out of time
TTITLE23=Bobby Fuller Four / I fought the law
TTITLE24=The Flowerpot Man / Let's go to San Fransisco
TTITLE25=Scaffold / Thank u very much
EXTD=
EXTT0=
EXTT1=
EXTT2=
EXTT3=
EXTT4=
EXTT5=
EXTT6=
EXTT7=
EXTT8=
EXTT9=
EXTT10=
EXTT11=
EXTT12=
EXTT13=
EXTT14=
EXTT15=
EXTT16=
EXTT17=
EXTT18=
EXTT19=
EXTT20=
EXTT21=
EXTT22=
EXTT23=
EXTT24=
EXTT25=
PLAYORDER=