Last change 2020.03.01 14:20:52 / Time 2021.12.07 03:14:44

Music Database

My complete CD collection digitalized using differnent Linux tools in connection with remote CDDB databases.
These web pages give overview of content according to CDDB info.

cddb/740ae909.txt

# xmcd CD database file generated by Grip 3.3.1
# 
# Track frame offsets:
#       183
#       20408
#       40550
#       59583
#       78678
#       101835
#       126933
#       156170
#       182673
# 
# Disc length: 2795 seconds
# 
# Revision: 27
# Submitted via: Grip 3.3.1
# 
DISCID=740ae909
DTITLE=Talking Heads / Stop Making Sense
DYEAR=1984
DGENRE=rock
DID3=66
TTITLE0=Psycho Killer (Live)
TTITLE1=Swamp
TTITLE2=Slippery People
TTITLE3=Burning Down The House
TTITLE4=Girlfriend Is Better
TTITLE5=Once In A Lifetime
TTITLE6=What A Day That Was
TTITLE7=Life During Wartime
TTITLE8=Take Me To The River
EXTD=listing songs as live recordings as aposed to studio YEAR: 1984
EXTT0=
EXTT1=
EXTT2=
EXTT3=
EXTT4=
EXTT5=
EXTT6=
EXTT7=
EXTT8=
PLAYORDER=