Last change 2020.03.01 14:20:52 / Time 2021.10.22 09:07:21

Music Database

My complete CD collection digitalized using differnent Linux tools in connection with remote CDDB databases.
These web pages give overview of content according to CDDB info.

cddb/7409ef0a.txt

# xmcd CD database file generated by Grip 3.3.1
# 
# Track frame offsets:
#       150
#       17275
#       32135
#       55767
#       79142
#       103847
#       124070
#       135860
#       155082
#       169697
# 
# Disc length: 2545 seconds
# 
# Revision: 4
# Submitted via: Grip 3.3.1
# 
DISCID=7409ef0a
DTITLE=Kitaro / Silk Road Vol2
DYEAR=1981
DGENRE=newage
DID3=10
TTITLE0=Peace
TTITLE1=Takla Makan Desert
TTITLE2=Eternal Spring
TTITLE3=Silver Moon
TTITLE4=Magical Sand Dance
TTITLE5=Year 40080
TTITLE6=Time Travel
TTITLE7=Reincarnation
TTITLE8=Dawning
TTITLE9=Tienshan
EXTD=YEAR: 1981
EXTT0=
EXTT1=
EXTT2=
EXTT3=
EXTT4=
EXTT5=
EXTT6=
EXTT7=
EXTT8=
EXTT9=
PLAYORDER=