Last change 2020.03.01 14:20:52 / Time 2020.09.19 15:16:28

Music Database

My complete CD collection digitalized using differnent Linux tools in connection with remote CDDB databases.
These web pages give overview of content according to CDDB info.

cddb/74095c0a.txt

# xmcd CD database file generated by Grip 3.2.0
# 
# Track frame offsets:
#       150
#       15359
#       34592
#       54650
#       66110
#       91147
#       106108
#       121735
#       136664
#       157353
# 
# Disc length: 2398 seconds
# 
# Revision: 3
# Submitted via: Grip 3.2.0
# 
DISCID=74095c0a
DTITLE=Gasolin / Black Box - Gasolin 1
DYEAR=1971
DGENRE=rock
DID3=17
TTITLE0=Langebro
TTITLE1=Hej Christoffer
TTITLE2=Fra Dag Til Dag
TTITLE3=Lille Henry
TTITLE4=Tremastet Beton
TTITLE5=Solfanger
TTITLE6=Lopopora Williamsi
TTITLE7=Jeg Kan Høre Dig Kalde
TTITLE8=Strengt Fortroligt
TTITLE9=Lilli-Lilli
EXTD=
EXTT0=
EXTT1=
EXTT2=
EXTT3=
EXTT4=
EXTT5=
EXTT6=
EXTT7=
EXTT8=
EXTT9=
PLAYORDER=